eztv.re | Tuesday 20th of November 2018 05:21 PM ET
Search: or 
 

Vice News Tonight 2018 09 24 WEBRip x264-eSc eyepathchesforboys.com

Episode Breakdown
Vice News Tonight
Vice News Tonight TV Show

Air Date: 24 September, 2018
Download Links
     Torrent Download     Magnet Download
Added 1 month ago by eztv (verified).
Tracker Statistics
Seeds: 3
Peers: 1
Stats generated @ 17:21 on 20th Nov 2018
Torrent Info
Torrent File: Vice.News.Tonight.2018.09.24.WEBRip.x264-eSc[eztv].mkv
Torrent Hash: 4A432D24BB83FA8CA54B3810DCCC2A5A8D965501
Filesize: 169.49 MB
Released: 24th Sep 2018

File Format: MKV (Matroska)
Resolution: 720x404 px
Aspect Ratio: 16:9
Alternate Releases S L
VICE News Tonight 2018 09 18 720p WEB-DL AAC2 0 H 264-doosh 6 1
Vice News Tonight 2018 09 24 720p WEBRip x264-eSc 4 3
VICE News Tonight 2018 09 26 720p WEB-DL AAC2 0 H 264-doosh 3 1
VICE News Tonight 2018 09 27 720p WEB-DL AAC2 0 H 264-doosh 4 3
Vice News Tonight 2018 09 26 WEBRip x264-eSc 1 2
Vice News Tonight 2018 09 27 720p WEBRip x264-eSc 3 0
Vice News Tonight 2018 09 27 WEBRip x264-eSc 1 1

Vice News Tonight S00E00 - Episode 366

Summary:
There is no summary description for this episode yet.


Vice News Tonight 2018 09 24 WEBRip x264-eSc eyepathchesforboys.com
Vice News Tonight Screenshot
[header]



"Vice News Tonight" which premieres Oct. 10 (weeknights, 7:30 ET/PT) as the network's first daily series, won't just rehash the major stories of the day for those playing catch-up. Instead, the half-hour program assumes that viewers have already read the headlines on their phones and laptops, and want a more well-rounded, in-depth look at what's happening around the world

http://www.tvmaze.com/shows/21108/vice-news-tonight

Cast

Antonia Hylton ... Correspondent & Producer
Ben Anderson ... Correspondent & Producer
Arielle Duhaine-Ross ... Correspondent
Bijan Stephen ... Correspondent









Infomation


General
Format                                   : Matroska
Format version                           : Version 4 / Version 2
File size                                : 169 MiB
Duration                                 : 24 min 20 s
Overall bit rate                         : 973 kb/s
Encoded date                             : UTC 2018-09-25 00:33:56
Writing application                      : mkvmerge v22.0.0 ('At The End Of The World') 64-bit
Writing library                          : libebml v1.3.5 + libmatroska v1.4.8

Video
ID                                       : 1
Format                                   : AVC
Format/Info                              : Advanced Video Codec
Format profile                           : [email protected]
Format settings                          : CABAC / 4 Ref Frames
Format settings, CABAC                   : Yes
Format settings, RefFrames               : 4 frames
Codec ID                                 : V_MPEG4/ISO/AVC
Duration                                 : 24 min 20 s
Bit rate                                 : 841 kb/s
Width                                    : 720 pixels
Height                                   : 480 pixels
Display aspect ratio                     : 16:9
Frame rate mode                          : Constant
Frame rate                               : 29.970 FPS
Standard                                 : NTSC
Color space                              : YUV
Chroma subsampling                       : 4:2:0
Bit depth                                : 8 bits
Scan type                                : Progressive
Bits/(Pixel*Frame)                       : 0.081
Stream size                              : 146 MiB (86%)
Writing library                          : x264 core 142 r2479 dd79a61
Encoding settings                        : cabac=1 / ref=3 / deblock=1:0:0 / analyse=0x3:0x113 / me=hex / subme=7 / psy=1 / psy_rd=1.00:0.00 / mixed_ref=1 / me_range=16 / chroma_me=1 / trellis=1 / 8x8dct=1 / cqm=0 / deadzone=21,11 / fast_pskip=1 / chroma_qp_offset=-2 / threads=12 / lookahead_threads=2 / sliced_threads=0 / nr=0 / decimate=1 / interlaced=0 / bluray_compat=0 / constrained_intra=0 / bframes=3 / b_pyramid=2 / b_adapt=1 / b_bias=0 / direct=1 / weightb=1 / open_gop=0 / weightp=2 / keyint=300 / keyint_min=30 / scenecut=40 / intra_refresh=0 / rc_lookahead=40 / rc=crf / mbtree=1 / crf=20.0 / qcomp=0.60 / qpmin=0 / qpmax=69 / qpstep=4 / vbv_maxrate=17500 / vbv_bufsize=17500 / crf_max=0.0 / nal_hrd=none / filler=0 / ip_ratio=1.40 / aq=1:1.00
Default                                  : Yes
Forced                                   : No
Color range                              : Limited
Color primaries                          : BT.709
Transfer characteristics                 : BT.709
Matrix coefficients                      : BT.709

Audio
ID                                       : 2
Format                                   : AAC
Format/Info                              : Advanced Audio Codec
Format profile                           : LC
Codec ID                                 : A_AAC-2
Duration                                 : 24 min 20 s
Bit rate                                 : 132 kb/s
Channel(s)                               : 2 channels
Channel positions                        : Front: L R
Sampling rate                            : 48.0 kHz
Frame rate                               : 46.875 FPS (1024 SPF)
Compression mode                         : Lossy
Stream size                              : 22.7 MiB (13%)
Title                                    : Stereo
Default                                  : Yes
Forced                                   : No



[footer]
ssl  eyepathchesforboys.com RSS eyepathchesforboys.com Status | eyepathchesforboys.com API | DMCA: [email protected]